Tiësto Archives

ティエストアーカイブス

Tiesto 2020-07-25 @ VER:WEST, Tomorrowland Around The World

Tiesto 2020-07-25 @ VER:WEST, Tomorrowland Around The World
Online Festival

Broadcast/Video 60:16

Freedom Stage

01. 5 Seconds Before Sunrise (Mixed)
02. Last One (Mixed)
03. ID1 (from VER:WEST at Tomorrowland's Digital Festival, July 2020) [Mixed]
04. It's All Over (Mixed)
05. Berlin (Mixed)
06. Fire (MOGUAI Edit) [Mixed]
07. Away With Me (Fideles Remix) [Mixed]
08. ID2 (from VER:WEST at Tomorrowland's Digital Festival, July 2020) [Mixed]
09. Mystery (feat. Jono McCleery) [Tale of Us & Mathame Remix] [Mixed]
10. Clavel (Mixed)
11. Analogy (Mixed)
12. Flow (Mixed)

Apple Music

REM DATE 2020
TITLE "VER:WEST at Tomorrowland's Digital Festival, July 2020 (DJ Mix)"
FILE "VER_WEST - VER_WEST at Tomorrowland's Digital Festival, July 2020 (DJ Mix).wav" WAVE
TRACK 01 AUDIO
TITLE "5 Seconds Before Sunrise (Mixed)"
PERFORMER "VER:WEST"
INDEX 01 00:00:00
TRACK 02 AUDIO
TITLE "Last One (Mixed)"
PERFORMER "Aalson & Minorah"
INDEX 01 05:14:06
TRACK 03 AUDIO
TITLE "ID1 (from VER:WEST at Tomorrowland's Digital Festival, July 2020) [Mixed]"
PERFORMER "ID"
INDEX 01 10:12:04
TRACK 04 AUDIO
TITLE "It's All Over (Mixed)"
PERFORMER "火凛"
INDEX 01 14:50:51
TRACK 05 AUDIO
TITLE "Berlin (Mixed)"
PERFORMER "The Dualz"
INDEX 01 20:00:19
TRACK 06 AUDIO
TITLE "Fire (MOGUAI Edit) [Mixed]"
PERFORMER "One Day Hero"
INDEX 01 24:54:26
TRACK 07 AUDIO
TITLE "Away With Me (Fideles Remix) [Mixed]"
PERFORMER "Ross Quinn"
INDEX 01 28:31:01
TRACK 08 AUDIO
TITLE "ID2 (from VER:WEST at Tomorrowland's Digital Festival, July 2020) [Mixed]"
PERFORMER "ID"
INDEX 01 34:19:23
TRACK 09 AUDIO
TITLE "Mystery (feat. Jono McCleery) [Tale of Us & Mathame Remix] [Mixed]"
PERFORMER "Adriatique"
INDEX 01 40:19:17
TRACK 10 AUDIO
TITLE "Clavel (Mixed)"
PERFORMER "Issac"
INDEX 01 45:28:59
TRACK 11 AUDIO
TITLE "Analogy (Mixed)"
PERFORMER "Stephan Jolk"
INDEX 01 50:26:55
TRACK 12 AUDIO
TITLE "Flow (Mixed)"
PERFORMER "Arpow"
INDEX 01 55:28:42

次へ 投稿

前へ 投稿

© 2020 Tiësto Archives