Tiësto Archives

ティエストアーカイブス

Tiesto 2021-05-09 @ Best of Tiesto - Tiesto Mix 2021

Tiesto 2021-05-09 @ Best of Tiesto - Tiesto Mix 2021

Tracklist:
[00:00:00] 01. Tiësto & The Chainsmokers - Split (Only U)
[00:05:31] 02. Tiësto & Oliver Heldens - Wombass
[00:09:22] 03. Tiësto - The Business
[00:12:25] 03. Tiësto & Sevenn - BOOM
[00:15:13] 04. Tiësto - Grapevine
[00:17:51] 06. Tiësto & Don Diablo - Chemicals (feat. Thomas Troelsen)
[00:21:44] 07. Tiësto & 7 Skies - My Frequency (feat. RebMoe)
[00:24:16] 08. Tiesto & Allure - Pair of Dice
[00:27:01] 09. Tiësto & Mike Williams - I Want You
[00:29:56] 10. Tiësto & KSHMR feat. Vassy - Secrets
[00:33:38] 11. Tiësto, Stargate, Aloe Blacc - Carry You Home
[00:37:01] 12. Tiësto & KSHMR ft. Talay Riley - Harder
[00:39:30] 13. John Legend, Jason Agel, Tiësto - All of Me (Tiësto's Birthday Treatment Remix)
[00:41:23] 14. Ed Sheeran, Tiësto - Happier (Tiësto’s AFTR:HRS Remix)
[00:43:49] 15. Tiësto - Wasted (feat. Matthew Koma)
[00:46:49] 16. P!nk - What About Us (Tiësto's AFTR:HRS Remix)
[00:49:29] 17. Tiësto & Vintage Culture - Coffee (Give Me Something)
[00:54:00] 18. Tiësto & Hardwell - Zero 76
[00:56:31] 19. Tiësto & Mesto - Coming Home
[00:58:07] 20. Martin Garrix & Tiësto - The Only Way Is Up
[01:02:11] 21. Tiësto & Dzeko ft. Preme & Post Malone - Jackie Chan (Tiestos Big Room Mix)
[01:04:11] 22. Tiësto & MOSKA - Acordeão
[01:05:45] 23. Tiësto - Tomorrow (feat. 433)
[01:07:30] 24. Tiësto & DallasK - Show Me
[01:09:45] 25. Tiësto - WOW
[01:12:23] 26. Tiësto & Dyro - Paradise
[01:14:52] 27. Dzeko & Torres - L’Amour Toujours feat. Delaney Jane (Tiësto Edit)
[01:17:58] 28. Showtek & Noisecontrollers - Get Loose (Tiësto Remix)
[01:20:21] 29. Tiesto vs. Diplo - C'Mon
[01:24:21] 30. Tiësto - Maximal Crazy

FILE "Spinnin' Records - .wav" WAVE
TRACK 01 AUDIO
TITLE "1. Tiësto & The Chainsmokers - Split (Only U)"
PERFORMER "Spinnin' Records"
INDEX 01 00:00:00
REM REPLAYGAIN_TRACK_GAIN -10.42 dB
REM REPLAYGAIN_TRACK_PEAK 1.441199
TRACK 02 AUDIO
TITLE "2. Tiësto & Oliver Heldens - Wombass"
PERFORMER "Spinnin' Records"
INDEX 01 05:31:00
TRACK 03 AUDIO
TITLE "3. Tiësto - The Business"
PERFORMER "Spinnin' Records"
INDEX 01 09:22:00
TRACK 04 AUDIO
TITLE "3. Tiësto & Sevenn - BOOM"
PERFORMER "Spinnin' Records"
INDEX 01 12:25:00
TRACK 05 AUDIO
TITLE "4. Tiësto - Grapevine"
PERFORMER "Spinnin' Records"
INDEX 01 15:13:00
TRACK 06 AUDIO
TITLE "6. Tiësto & Don Diablo - Chemicals (feat. Thomas Troelsen)"
PERFORMER "Spinnin' Records"
INDEX 01 17:51:00
TRACK 07 AUDIO
TITLE "7. Tiësto & 7 Skies - My Frequency (feat. RebMoe)"
PERFORMER "Spinnin' Records"
INDEX 01 21:44:00
TRACK 08 AUDIO
TITLE "8. Tiesto & Allure - Pair of Dice"
PERFORMER "Spinnin' Records"
INDEX 01 24:16:00
TRACK 09 AUDIO
TITLE "9. Tiësto & Mike Williams - I Want You"
PERFORMER "Spinnin' Records"
INDEX 01 27:01:00
TRACK 10 AUDIO
TITLE "10. Tiësto & KSHMR feat. Vassy - Secrets"
PERFORMER "Spinnin' Records"
INDEX 01 29:56:00
TRACK 11 AUDIO
TITLE "11. Tiësto, Stargate, Aloe Blacc - Carry You Home"
PERFORMER "Spinnin' Records"
INDEX 01 33:38:00
TRACK 12 AUDIO
TITLE "12. Tiësto & KSHMR ft. Talay Riley - Harder"
PERFORMER "Spinnin' Records"
INDEX 01 37:01:00
TRACK 13 AUDIO
TITLE "13. John Legend, Jason Agel, Tiësto - All of Me (Tiësto's Birthday Treatment Remix)"
PERFORMER "Spinnin' Records"
INDEX 01 39:30:00
TRACK 14 AUDIO
TITLE "14. Ed Sheeran, Tiësto - Happier (Tiësto’s AFTR:HRS Remix)"
PERFORMER "Spinnin' Records"
INDEX 01 41:23:00
TRACK 15 AUDIO
TITLE "15. Tiësto - Wasted (feat. Matthew Koma)"
PERFORMER "Spinnin' Records"
INDEX 01 43:49:00
TRACK 16 AUDIO
TITLE "16. P!nk - What About Us (Tiësto's AFTR:HRS Remix)"
PERFORMER "Spinnin' Records"
INDEX 01 46:49:00
TRACK 17 AUDIO
TITLE "17. Tiësto & Vintage Culture - Coffee (Give Me Something)"
PERFORMER "Spinnin' Records"
INDEX 01 49:29:00
TRACK 18 AUDIO
TITLE "18. Tiësto & Hardwell - Zero 76"
PERFORMER "Spinnin' Records"
INDEX 01 54:00:00
TRACK 19 AUDIO
TITLE "19. Tiësto & Mesto - Coming Home"
PERFORMER "Spinnin' Records"
INDEX 01 56:31:00
TRACK 20 AUDIO
TITLE "20. Martin Garrix & Tiësto - The Only Way Is Up"
PERFORMER "Spinnin' Records"
INDEX 01 58:07:00
TRACK 21 AUDIO
TITLE "21. Tiësto & Dzeko ft. Preme & Post Malone - Jackie Chan (Tiestos Big Room Mix)"
PERFORMER "Spinnin' Records"
INDEX 01 62:11:00
TRACK 22 AUDIO
TITLE "22. Tiësto & MOSKA - Acordeão"
PERFORMER "Spinnin' Records"
INDEX 01 64:11:00
TRACK 23 AUDIO
TITLE "23. Tiësto - Tomorrow (feat. 433)"
PERFORMER "Spinnin' Records"
INDEX 01 65:45:00
TRACK 24 AUDIO
TITLE "24. Tiësto & DallasK - Show Me"
PERFORMER "Spinnin' Records"
INDEX 01 67:30:00
TRACK 25 AUDIO
TITLE "25. Tiësto - WOW"
PERFORMER "Spinnin' Records"
INDEX 01 69:45:00
TRACK 26 AUDIO
TITLE "26. Tiësto & Dyro - Paradise"
PERFORMER "Spinnin' Records"
INDEX 01 72:23:00
TRACK 27 AUDIO
TITLE "27. Dzeko & Torres - L’Amour Toujours feat. Delaney Jane (Tiësto Edit)"
PERFORMER "Spinnin' Records"
INDEX 01 74:52:00
TRACK 28 AUDIO
TITLE "28. Showtek & Noisecontrollers - Get Loose (Tiësto Remix)"
PERFORMER "Spinnin' Records"
INDEX 01 77:58:00
TRACK 29 AUDIO
TITLE "29. Tiesto vs. Diplo - C'Mon"
PERFORMER "Spinnin' Records"
INDEX 01 80:21:00
TRACK 30 AUDIO
TITLE "30. Tiësto - Maximal Crazy"
PERFORMER "Spinnin' Records"
INDEX 01 84:21:00

次へ 投稿

前へ 投稿

© 2021 Tiësto Archives