Tiësto Archives

ティエストアーカイブス

Tiesto - Club Life Vol. 3 Stockholm (Spotify Exclusive) (2013)

Tiesto - Club Life Vol. 3 Stockholm (Spotify Exclusive) (2013)

01. Paradise
02. Take Me
03. Compromise
04. Apollo (Hardwell's Club Life Edit)
05. Love And Run
06. Clarity (Tiësto Remix)
07. I Love It (Tiësto's Club Life Remix
08. Carried Away (Tiësto Remix)
09. Champs
10. Kings Cup
11. Cango
12. Turn It Up
13. Century (Tiësto & Moska Remix)
14. Shocker
15. Back To The Acid
16. United (Tiësto & Blasterjaxx Remix)

FILE "Club Life, Vol 3 - Stockholm (Spotify Exclusive).wav" WAVE
TRACK 01 AUDIO
TITLE ""
INDEX 01 00:00:00
TRACK 02 AUDIO
TITLE ""
INDEX 01 05:14:29
TRACK 03 AUDIO
TITLE ""
INDEX 01 09:28:92
TRACK 04 AUDIO
TITLE ""
INDEX 01 13:58:61
TRACK 05 AUDIO
TITLE ""
INDEX 01 18:43:26
TRACK 06 AUDIO
TITLE ""
INDEX 01 24:09:13
TRACK 07 AUDIO
TITLE ""
INDEX 01 29:31:03
TRACK 08 AUDIO
TITLE ""
INDEX 01 33:30:76
TRACK 09 AUDIO
TITLE ""
INDEX 01 37:45:49
TRACK 10 AUDIO
TITLE ""
INDEX 01 42:03:92
TRACK 11 AUDIO
TITLE ""
INDEX 01 46:48:18
TRACK 12 AUDIO
TITLE ""
INDEX 01 50:48:05
TRACK 13 AUDIO
TITLE ""
INDEX 01 55:31:80
TRACK 14 AUDIO
TITLE ""
INDEX 01 62:02:23
TRACK 15 AUDIO
TITLE ""
INDEX 01 67:46:95
TRACK 16 AUDIO
TITLE ""
INDEX 01 71:01:73

次へ 投稿

前へ 投稿

© 2020 Tiësto Archives