Tiësto Archives

ティエストアーカイブス

Tiesto – Together DJ Mix (2019)

Tiesto – Together DJ Mix (2019)

2019/04/12 Release

01. Tiësto & The Chainsmokers – Split (Only U) [04:01]
02. Tiësto & DallasK – Show Me [03:15]
03. Tiësto & Stoltenhoff – Lose Control [02:14]
04. Tiësto & John Christian – Can You Feel It? [02:44]
05. Tiësto & KSHMR feat. VASSY – Secrets [03:56]
06. Tiësto feat. Stargate & Aloe Blacc – Carry You Home (Tiësto Big Room Mix) [03:26]
07. Tiësto & Dzeko feat. Lena Leon – Halfway There [03:07]
08. Tiësto & Mesto – Coming Home [02:54]
09. Tiësto & Don Diablo feat. Thomas Troelsen – Chemicals [03:31]
10. Tiësto & Sikdope – My Whistle [02:59]
11. Tiësto & Oliver Heldens – Wombass [03:30]
12. Martin Garrix & Tiësto – The Only Way Is Up [03:48]
13. Tiësto & Sevenn – BOOM [02:26]
14. Niels van Gogh – Pulverturm (Tiësto Big Room Remix) [02:59]
15. Tiësto & SWACQ – Party Time [02:52]
16. Tiësto & Mesto – Can’t Get Enough [03:03]
17. Tiësto & 7 Skies feat. Micky Blue – Trouble [03:20]
18. Tiësto & Matisse & Sadko – Dawnbreaker [03:30]

57:34

REM GENRE “ダンス”
REM DATE 2019
TITLE “Together DJ Mix”
PERFORMER “ティエスト”
FILE “ティエスト – Together DJ Mix.flac” WAVE
TRACK 01 AUDIO
TITLE “Split (Only U) [Mixed]”
PERFORMER “ティエスト & ザ・チェインスモーカーズ”
INDEX 01 00:00:00
TRACK 02 AUDIO
TITLE “Show Me (Mixed)”
PERFORMER “ティエスト & ダラスケイ”
INDEX 01 04:00:73
TRACK 03 AUDIO
TITLE “Lose Control (Mixed)”
PERFORMER “ティエスト & Stoltenhoff”
INDEX 01 07:15:70
TRACK 04 AUDIO
TITLE “Can You Feel It (Mixed)”
PERFORMER “ティエスト & John Christian”
INDEX 01 09:29:66
TRACK 05 AUDIO
TITLE “Secrets (feat. VASSY) [Mixed]”
PERFORMER “ティエスト & KSHMR”
INDEX 01 12:13:63
TRACK 06 AUDIO
TITLE “Carry You Home (feat. Stargate & Aloe Blacc) [Tiësto Big Room Mix] [Mixed]”
PERFORMER “ティエスト”
INDEX 01 16:09:60
TRACK 07 AUDIO
TITLE “Halfway There (feat. Lena Leon) [Mixed]”
PERFORMER “ティエスト & Dzeko”
INDEX 01 19:35:57
TRACK 08 AUDIO
TITLE “Coming Home (Mixed)”
PERFORMER “ティエスト & MESTO”
INDEX 01 22:42:54
TRACK 09 AUDIO
TITLE “Chemicals (feat. Thomas Troelsen) [Mixed]”
PERFORMER “ティエスト & ドンディアブロ”
INDEX 01 25:36:51
TRACK 10 AUDIO
TITLE “My Whistle (Mixed)”
PERFORMER “ティエスト & Sikdope”
INDEX 01 29:07:50
TRACK 11 AUDIO
TITLE “Wombass (Mixed)”
PERFORMER “ティエスト & オリヴァー・ヘルデンス”
INDEX 01 32:06:46
TRACK 12 AUDIO
TITLE “The Only Way Is Up (Mixed)”
PERFORMER “ティエスト & Martin Garrix”
INDEX 01 35:36:43
TRACK 13 AUDIO
TITLE “Boom (Mixed)”
PERFORMER “ティエスト & Sevenn”
INDEX 01 39:24:41
TRACK 14 AUDIO
TITLE “Pulverturm (Tiësto’s Big Room Remix) [Mixed]”
PERFORMER “ニールズ・ヴァン・ゴッホ”
INDEX 01 41:50:37
TRACK 15 AUDIO
TITLE “Party Time (Mixed)”
PERFORMER “ティエスト & SWACQ”
INDEX 01 44:49:34
TRACK 16 AUDIO
TITLE “Can’t Get Enough (Mixed)”
PERFORMER “ティエスト & MESTO”
INDEX 01 47:41:31
TRACK 17 AUDIO
TITLE “Trouble (feat. Micky Blue) [Mixed]”
PERFORMER “ティエスト & 7 Skies”
INDEX 01 50:44:29
TRACK 18 AUDIO
TITLE “Dawnbreaker (Mixed)”
PERFORMER “ティエスト & Matisse & Sadko”
INDEX 01 54:04:27

次へ 投稿

前へ 投稿

© 2019 Tiësto Archives