Tiësto Archives

ティエストの作品・ライブのすべてをまとめる。

Tiesto 2022-10-22 @ Spotify DJ Mix

Tiesto 2022-10-22 @ Spotify DJ Mix

Type1
01. Tiesto - The Business
02. The Black Eyed Peas, Tiesto - Pump It Louder
03. Tiesto - Baila Conmigo
04. Tiesto - Can U Dance (To My Beat)
05. Ava Max, Tiesto - The Motto (Tiesto's VIP Mix)
06. Charli XCX, Tiesto - Hot In It
07. Lee Foss, SIDEPIECE - 1, 2 Step (Supersonic)
08. PAJANE - Back Once More
09. Westend, CID - Let Me Take You (Extended Mix)
10. Jake Tarry, KREAM - Once Again
11. Dark Heart, DallasK - Time
12. Anti Up - Chromatic
13. Tiesto, Bleta Rexha, David Guetta - I'm Good (Blue) (Tiesto Remix) (Extended)
14. Tiesto, Sevek, Ownboss - Move Your Body (Tiesto Edit)
15. Sigala, Tiesto - Melody (Tiesto Remix)
16. Tiesto, Farucco, El Alfa, Axel Rulay - Si Es Trucho Es Trucho (feat. El Alfa & Farruko) (Tiesto Remix)
17. Tiesto, Becky G - NO MIENTEN (Tiesto Remix)
18. Deorro, Tiesto - Savage

FILE "Spotify DJ Mix.mp3" MP3
TRACK 01 AUDIO
TITLE "The Business"
PERFORMER "Tiesto"
PREGAP 00:02:50
INDEX 01 00:00:00
TRACK 02 AUDIO
TITLE "Pump It Louder"
PERFORMER "The Black Eyed Peas, Tiesto"
INDEX 01 02:58:16
TRACK 03 AUDIO
TITLE "Baila Conmigo"
PERFORMER "Tiesto"
INDEX 01 06:13:78
TRACK 04 AUDIO
TITLE "Can U Dance (To My Beat)"
PERFORMER "Tiesto"
INDEX 01 09:20:22
TRACK 05 AUDIO
TITLE "The Motto (Tiesto's VIP Mix)"
PERFORMER "Ava Max, Tiesto"
INDEX 01 11:46:10
TRACK 06 AUDIO
TITLE "Hot In It"
PERFORMER "Charli XCX, Tiesto"
INDEX 01 15:18:10
TRACK 07 AUDIO
TITLE "1, 2 Step (Supersonic)"
PERFORMER "Lee Foss, SIDEPIECE"
INDEX 01 17:32:08
TRACK 08 AUDIO
TITLE "Back Once More"
PERFORMER "PAJANE"
INDEX 01 20:06:58
TRACK 09 AUDIO
TITLE "Let Me Take You (Extended Mix)"
PERFORMER "Westend, CID"
INDEX 01 23:34:58
TRACK 10 AUDIO
TITLE "Once Again"
PERFORMER "Jake Tarry, KREAM"
INDEX 01 26:37:83
TRACK 11 AUDIO
TITLE "Time"
PERFORMER "Dark Heart, DallasK"
INDEX 01 29:39:33
TRACK 12 AUDIO
TITLE "Chromatic"
PERFORMER "Anti Up"
INDEX 01 32:58:58
TRACK 13 AUDIO
TITLE "I'm Good (Blue) (Tiesto Remix Extended)"
PERFORMER "Tiesto, Bleta Rexha, David Guetta"
INDEX 01 37:30:58
TRACK 14 AUDIO
TITLE "Move Your Body (Tiesto Edit)"
PERFORMER "Tiesto, Sevek, Ownboss"
INDEX 01 40:40:07
TRACK 15 AUDIO
TITLE "Melody - Tiesto Remix"
PERFORMER "Sigala, Tiesto"
INDEX 01 42:56:07
TRACK 16 AUDIO
TITLE "Si Es Trucho Es Trucho (feat. El Alfa & Farruko) (Tiesto Remix)"
PERFORMER "Tiesto, Farucco, El Alfa, Axel Rulay"
INDEX 01 45:42:95
TRACK 17 AUDIO
TITLE "NO MIENTEN (Tiesto Remix)"
PERFORMER "Tiesto, Becky G"
INDEX 01 48:06:64
TRACK 18 AUDIO
TITLE "Savage"
PERFORMER "Deorro, Tiesto"
INDEX 01 50:22:64

Spotify Recording 53:35/mp3/flac

Type2
01. Tiesto - The Business
02. The Black Eyed Peas, Tiesto - Pump It Louder
03. Tiesto - Baila Conmigo
04. Tiesto - Can U Dance (To My Beat)
05. Ava Max, Tiesto - The Motto (Tiesto's VIP Mix)
06. Charli XCX, Tiesto - Hot In It
07. BYOT, Imanbek - Belly Dancer
08. Lee Foss, SIDEPIECE - 1, 2 Step (Supersonic)
09. PAJANE - Back Once More
10. Goodboys, Vintage Culture - This Feeling
11. Westend, CID - Let Me Take You (Extended Mix)
12. Jake Tarry, KREAM - Once Again
13. Dark Heart, DallasK - Time
14. Anti Up - Chromatic
15. Tiesto, Bleta Rexha, David Guetta - I'm Good (Blue) (Tiesto Remix) (Extended)
16. Tiesto, Sevek, Ownboss - Move Your Body (Tiesto Edit)
17. Sigala, Tiesto - Melody (Tiesto Remix)
18. Tiesto, Farucco, El Alfa, Axel Rulay - Si Es Trucho Es Trucho (feat. El Alfa & Farruko) (Tiesto Remix)
19. Tiesto, Becky G - NO MIENTEN (Tiesto Remix)
20. Deorro, Tiesto - Savage

FILE "Spotify DJ Mix.flac" WAVE
TRACK 01 AUDIO
TITLE "The Business"
INDEX 01 00:00:00
TRACK 02 AUDIO
TITLE "Pump It Louder"
INDEX 01 02:58:00
TRACK 03 AUDIO
TITLE "Baila Conmigo"
INDEX 01 06:12:00
TRACK 04 AUDIO
TITLE "Can U Dance (To My Beat)"
INDEX 01 09:19:00
TRACK 05 AUDIO
TITLE "The Motto (Tiësto’s VIP Mix)"
INDEX 01 11:45:00
TRACK 06 AUDIO
TITLE "Hot In It"
INDEX 01 15:17:00
TRACK 07 AUDIO
TITLE "Belly Dancer"
INDEX 01 17:30:00
TRACK 08 AUDIO
TITLE "1, 2 Step (Supersonic)"
INDEX 01 20:28:00
TRACK 09 AUDIO
TITLE "Back Once More"
INDEX 01 23:02:00
TRACK 10 AUDIO
TITLE "This Feeling"
INDEX 01 26:30:00
TRACK 11 AUDIO
TITLE "Let Me Take You (Extended Mix)"
INDEX 01 29:57:00
TRACK 12 AUDIO
TITLE "Once Again"
INDEX 01 33:00:00
TRACK 13 AUDIO
TITLE "Time"
INDEX 01 36:02:00
TRACK 14 AUDIO
TITLE "Chromatic"
INDEX 01 39:21:00
TRACK 15 AUDIO
TITLE "I'm Good (Blue) (Tiësto Remix Extended)"
INDEX 01 43:53:00
TRACK 16 AUDIO
TITLE "Move Your Body (Tiësto Edit)"
INDEX 01 47:02:00
TRACK 17 AUDIO
TITLE "Melody (Tiësto Remix)"
INDEX 01 49:18:00
TRACK 18 AUDIO
TITLE "Si Es Trucho Es Trucho (feat. El Alfa & Farruko) (Tiësto Remix)"
INDEX 01 52:04:00
TRACK 19 AUDIO
TITLE "NO MIENTEN (Tiësto Remix)"
INDEX 01 54:27:00
TRACK 20 AUDIO
TITLE "Savage"
INDEX 01 56:43:00

Spotify Recording 60:00/mp3/flac

次へ 投稿

前へ 投稿

© 2022 Tiësto Archives