Tiësto Archives

ティエストの作品・ライブのすべてをまとめる。

Tiesto 2022-12-23 @ Apple Music Mixes NYE 2023

Tiesto 2022-12-23 @ Apple Music Mixes NYE 2023

Tiesto 2022-12-23 @ Apple Music Mixes NYE 2023

01. Tiësto feat. Tate McRae - 10:35
02. ACRAZE feat. GOODBOYS - Believe
03. MEDUZA & James Carter feat. Elley Duhé & Fast Boy - Bad Memories
04. Tiësto feat. James Bell - The Business
05. Disco Lines feat. Morgan Harvill - Techno + Tequila
06. Shouse - Love Tonight (Oing Remix)
07. Supermode - Tell Me Why (MEDUZA Remix)
08. ACRAZE feat. Cherish - Do It To It (Tiësto Remix)
09. Tiësto & Charli XCX - Hot In It (Tiësto Hotter Mix)
10. Öwnboss & Sevek - Move Your Body (Tiësto Remix)
11. Tiësto & Ava Max - The Motto (Tiësto New Year's Eve VIP Mix)
12. Sam Smith feat. Kim Petras - Unholy (Disclosure Remix)
13. Badshah & J Balvin & Tainy - Voodoo (Tiësto Remix)
14. Knock2 - dashstar*
15. Kx5 - Take Me High
16. Tiësto & Karol G - Don't Be Shy (VIP Mix)
17. David Guetta feat. Bebe Rexha - I'm Good (Blue) (Tiësto Remix)
18. Fred again.. & Swedish House Mafia feat. Future - Turn On The Lights Again.. (Knock2 Remix)
19. James Hype & Miggy Dela Rosa - Ferrari (Cheyenne Giles Edit)
20. Tiësto & Black Eyed Peas - Pump It Louder
21. Tiësto - Baila Conmigo
22. Tiësto - Can U Dance (To My Beat)

60:12

REM GENRE "Electronic"
REM DATE 2022
TITLE "NYE 2023 (DJ Mix)"
PERFORMER "ティエスト"
REM DISCNUMBER 1
FILE "Tiesto - NYE 2023 (DJ Mix).flac" WAVE
TRACK 01 AUDIO
TITLE "10:35 (Mixed)"
PERFORMER "ティエスト & Tate McRae"
INDEX 01 00:00:00
REM REPLAYGAIN_TRACK_GAIN -10.22 dB
REM REPLAYGAIN_TRACK_PEAK 1.000000
TRACK 02 AUDIO
TITLE "Believe (feat. Goodboys) [Mixed]"
PERFORMER "Acraze"
INDEX 01 02:43:13
TRACK 03 AUDIO
TITLE "Bad Memories (feat. Elley Duhé & FAST BOY) [Mixed]"
PERFORMER "ジェームス・カーター & メドゥーザ"
INDEX 01 05:42:21
TRACK 04 AUDIO
TITLE "The Business (Mixed)"
PERFORMER "ティエスト"
INDEX 01 08:25:23
TRACK 05 AUDIO
TITLE "TECHNO + TEQUILA (feat. Morgan Harvill) [Mixed]"
PERFORMER "Disco Lines"
INDEX 01 11:39:20
TRACK 06 AUDIO
TITLE "Love Tonight (Oing Remix) [Mixed]"
PERFORMER "Shouse"
INDEX 01 13:11:20
TRACK 07 AUDIO
TITLE "Tell Me Why (Meduza Remix) [Mixed]"
PERFORMER "Supermode"
INDEX 01 14:58:13
TRACK 08 AUDIO
TITLE "Do It To It (feat. Cherish & Tiësto) [Tiësto Remix] [Mixed]"
PERFORMER "Acraze"
INDEX 01 20:48:29
TRACK 09 AUDIO
TITLE "Hot In It (Tiësto’s Hotter Mix) [Mixed]"
PERFORMER "ティエスト & チャーリー・エックス・シー・エックス"
INDEX 01 22:18:24
TRACK 10 AUDIO
TITLE "Move Your Body (Tiësto Remix) [Mixed]"
PERFORMER "Öwnboss & SEVEK"
INDEX 01 25:21:57
TRACK 11 AUDIO
TITLE "The Motto (Tiësto’s New Year’s Eve VIP Mix) [Mixed]"
PERFORMER "ティエスト & Ava Max"
INDEX 01 27:52:74
TRACK 12 AUDIO
TITLE "Unholy (Disclosure Remix) [Mixed]"
PERFORMER "キム・ペトラス & サム・スミス"
INDEX 01 31:40:47
TRACK 13 AUDIO
TITLE "Voodoo (Tiësto Remix) [Mixed]"
PERFORMER "J. バルヴィン, ティエスト & Badshah"
INDEX 01 35:28:04
TRACK 14 AUDIO
TITLE "Dashstar* (Mixed)"
PERFORMER "Knock2"
INDEX 01 38:16:11
TRACK 15 AUDIO
TITLE "Take Me High (Mixed)"
PERFORMER "カスケード, Kx5 & デッドマウス"
INDEX 01 41:28:60
TRACK 16 AUDIO
TITLE "Don't Be Shy (VIP Mix) [Mixed]"
PERFORMER "ティエスト & カロルG"
INDEX 01 44:07:34
TRACK 17 AUDIO
TITLE "I'm Good (Blue) [Tiësto Remix] [Mixed]"
PERFORMER "デヴィッド・ゲッタ & ビービー・レクサ"
INDEX 01 47:08:58
TRACK 18 AUDIO
TITLE "Turn On The Lights again.. (feat. Future) [Knock2 Remix] [Mixed]"
PERFORMER "スウェディッシュ・ハウス・マフィア & Fred again.."
INDEX 01 50:01:45
TRACK 19 AUDIO
TITLE "Ferrari (Cheyenne Giles Remix) [Mixed]"
PERFORMER "Miggy Dela Rosa & James Hype"
INDEX 01 51:47:47
TRACK 20 AUDIO
TITLE "Pump It Louder (Mixed)"
PERFORMER "ティエスト & Black Eyed Peas"
INDEX 01 52:59:64
TRACK 21 AUDIO
TITLE "Baila Conmigo (Mixed)"
PERFORMER "ティエスト"
INDEX 01 56:11:40
TRACK 22 AUDIO
TITLE "Can U Dance (To My Beat) [Mixed]"
PERFORMER "ティエスト"
INDEX 01 57:44:38

次へ 投稿

前へ 投稿

© 2023 Tiësto Archives