Tiësto Archives

ティエストアーカイブス

Tiesto - Burn By Tiesto (2015) (Spotify)

Tiesto - Burn By Tiesto (2015)

Tiesto - Burn By Tiesto (2015)

Spotify asked me to produce a brand new track (which is 30 minutes long!) for their amazing new running platform. It...

Posted by Tiësto on 2015年6月2日

Spotify asked me to produce a brand new track (which is 30 minutes long!) for their amazing new running platform. It doesn’t sound like anything I’ve ever produced before - the tempo is much faster to inspire you during your workouts. Check it out and let me know if you ran faster!: tsto.co/iax0s #fitness #motivation
2015/06/03

01. Chapter 1 of 9
02. Chapter 2 of 9
03. Chapter 3 of 9
04. Chapter 4 of 9
05. Chapter 5 of 9
06. Chapter 6 of 9
07. Chapter 7 of 9
08. Chapter 8 of 9
09. Chapter 9 of 9

41:50

FILE "joined.wav" WAVE
TRACK 01 AUDIO
PERFORMER "Tiesto"
TITLE ""
INDEX 01 00:00:00
TRACK 02 AUDIO
PERFORMER "Tiesto"
TITLE ""
INDEX 01 03:39:59
TRACK 03 AUDIO
PERFORMER "Tiesto"
TITLE ""
INDEX 01 08:13:88
TRACK 04 AUDIO
PERFORMER "Tiesto"
TITLE ""
INDEX 01 13:01:92
TRACK 05 AUDIO
PERFORMER "Tiesto"
TITLE ""
INDEX 01 16:41:52
TRACK 06 AUDIO
PERFORMER "Tiesto"
TITLE ""
INDEX 01 24:00:43
TRACK 07 AUDIO
PERFORMER "Tiesto"
TITLE ""
INDEX 01 27:26:31
TRACK 08 AUDIO
PERFORMER "Tiesto"
TITLE ""
INDEX 01 32:28:20
TRACK 09 AUDIO
PERFORMER "Tiesto"
TITLE ""
INDEX 01 37:09:51

Club Life Vol. 3 - Stockholm (Spotify Exclusive)

次へ 投稿

前へ 投稿

2 コメント

  1. Merete Medle 2016/07/06

    Please tell me where the theme in chapter 8 is from?! It’s awesome!!

返信する

このサイトはスパムを低減するために Akismet を使っています。コメントデータの処理方法の詳細はこちらをご覧ください

© 2020 Tiësto Archives